百度云資源論壇

 找回密碼
 立即注冊
打印 上一主題 下一主題

惡人傳 The.Gangster.the.Cop.the.Devil.2019.KOREAN.1080p.BluRay.x264.DTS-Pb...

[復制鏈接]
跳轉到指定樓層
樓主




帖子完整標題:惡人傳 The.Gangster.the.Cop.the.Devil.2019.KOREAN.1080p.BluRay.x264.DTS-PbK 10.37GB




◎譯  名 惡人傳 / The Gangster, The Cop, The Devil / 惡霸?魔警?殺人狂(港) / 極惡對決(臺)
◎片  名 ???
◎年  代 2019
◎產  地 韓國
◎類  別 劇情 / 動作 / 犯罪
◎語  言 韓語
◎上映日期 2019-05-15(韓國)
◎IMDb評分  6.9/10 from 1549 users
◎片  長 109分鐘
◎導  演 李元泰 Won-tae Lee
◎編  劇 李元泰 Won-tae Lee
◎主  演 馬東錫 Tong-Seok Ma
       金武烈 Moo-yeol Kim
       金成圭 Seong-gyoo Kim
       劉承睦 Yoo Seung-Mok
       崔民哲 Min-cheol Choi
       金胤成 Kim Yoon-seong
       許棟元 Heo Dong-won
       吳熙俊 Hee-joon Oh
       楊志洙 Ji-soo Yang
       金桀 Kim Kyoul
       李恩泉 Eun-saem Lee
       劉在明 Jae-myung Yoo


◎標  簽 韓國 | 犯罪 | 暴力 | 動作 | 警匪 | 人性 | 懸疑 | 2019

◎簡  介  

  罪犯頭目張東洙(Don Lee)被一名神秘莫測的連環殺手暴力襲擊之后幸存,與當地警探鄭泰碩(Kim Moo Yul)形成了一種奇妙的搭檔關系,聯手捕捉被稱為“K”的虐待狂殺手”。
Video
ID                                       : 1
Format                                   : AVC
Format/Info                              : Advanced Video Codec
Format settings                          : CABAC / 5 Ref Frames
Format settings, CABAC                   : Yes
Format settings, Reference frames        : 5 frames
Codec ID                                 : V_MPEG4/ISO/AVC
Duration                                 : 1 h 49 min
Bit rate                                 : 12.0 Mb/s
Width                                    : 1 920 pixels
Height                                   : 800 pixels
Display aspect ratio                     : 2.40:1
Frame rate mode                          : Constant
Frame rate                               : 24.000 FPS
Color space                              : YUV
Chroma subsampling                       : 4:2:0
Bit depth                                : 8 bits
Scan type                                : Progressive
Bits/(Pixel*Frame)                       : 0.326
Stream size                              : 9.21 GiB (89%)
Writing library                          : x264 core 155 r2901 7d0ff22
Encoding settings                        : cabac=1 / ref=5 / deblock=1:-3:-3 / analyse=0x3:0x133 / me=umh / subme=11 / psy=1 / psy_rd=1.00:0.00 / mixed_ref=1 / me_range=48 / chroma_me=1 / trellis=2 / 8x8dct=1 / cqm=0 / deadzone=21,11 / fast_pskip=1 / chroma_qp_offset=-2 / threads=18 / lookahead_threads=3 / sliced_threads=0 / nr=0 / decimate=1 / interlaced=0 / bluray_compat=0 / constrained_intra=0 / bframes=8 / b_pyramid=2 / b_adapt=2 / b_bias=0 / direct=3 / weightb=1 / open_gop=0 / weightp=2 / keyint=240 / keyint_min=24 / scenecut=40 / intra_refresh=0 / rc=2pass / mbtree=0 / bitrate=12000 / ratetol=1.0 / qcomp=0.60 / qpmin=0 / qpmax=69 / qpstep=4 / cplxblur=20.0 / qblur=0.5 / ip_ratio=1.30 / pb_ratio=1.20 / aq=3:0.80
Language                                 : Korean
Default                                  : Yes
Forced                                   : No
Color range                              : Limited
Color primaries                          : BT.709
Transfer characteristics                 : BT.709
Matrix coefficients                      : BT.709

Audio
ID                                       : 2
Format                                   : DTS
Format/Info                              : Digital Theater Systems
Codec ID                                 : A_DTS
Duration                                 : 1 h 49 min
Bit rate mode                            : Constant
Bit rate                                 : 1 509 kb/s
Channel(s)                               : 6 channels
Channel layout                           : C L R Ls Rs LFE
Sampling rate                            : 48.0 kHz
Frame rate                               : 93.750 FPS (512 SPF)
Bit depth                                : 16 bits
Compression mode                         : Lossy
Stream size                              : 1.16 GiB (11%)
Language                                 : Korean
Default                                  : Yes
Forced                                   : No

Text
ID                                       : 3
Format                                   : UTF-8
Codec ID                                 : S_TEXT/UTF8
Codec ID/Info                            : UTF-8 Plain Text
Duration                                 : 1 h 44 min
Bit rate                                 : 52 b/s
Count of elements                        : 1323
Stream size                              : 40.4 KiB (0%)
Language                                 : English
Default                                  : No
Forced                                   : No



                                                                                                                                                                                                        
                                                                                                                                                                                                                                                                                                                                                                                                                                                                                                                                                                                                                                                                                                                                                                                                                                                       e30bc7a93e7d30641b5c9b34ee238d1f.torrent (52.43 KB)


回復

使用道具 舉報

小黑屋|百度云資源分享吧 ( 京ICP備15014721號-2 )

本網站所有資源來自網絡,如無意中侵犯了您的權益,請發郵件至 [email protected],立即清除相關鏈接

GMT+8, 2020-7-12 02:28 , Processed in 0.103224 second(s), 20 queries .

Powered by Discuz! X3.2

© 2001-2013 Comsenz Inc.

快速回復 返回頂部 返回列表
时时彩刷5星漏洞